<?xml version="1.0" standalone="no"?>
<!DOCTYPE svg PUBLIC "-//W3C//DTD SVG 1.1//EN" "http://www.w3.org/Graphics/SVG/1.1/DTD/svg11.dtd">
<svg xmlns="http://www.w3.org/2000/svg">
<metadata>Copyright (C) 2016 by original authors @ fontello.com</metadata>
<defs>
<font id="englishpark" horiz-adv-x="1000" >
<font-face font-family="englishpark" font-weight="400" font-stretch="normal" units-per-em="1000" ascent="850" descent="-150" />
<missing-glyph horiz-adv-x="1000" />
<glyph glyph-name="search" unicode="&#xe800;" d="M643 386q0 103-74 176t-176 74-177-74-73-176 73-177 177-73 176 73 74 177z m286-465q0-29-22-50t-50-21q-30 0-50 21l-191 191q-100-69-223-69-80 0-153 31t-125 84-84 125-31 153 31 152 84 126 125 84 153 31 152-31 126-84 84-126 31-152q0-123-69-223l191-191q21-21 21-51z" horiz-adv-x="928.6" />

<glyph glyph-name="mail-alt" unicode="&#xe801;" d="M1000 454v-443q0-37-26-63t-63-27h-822q-36 0-63 27t-26 63v443q25-28 56-49 202-137 278-192 32-24 51-37t53-27 61-13h2q28 0 61 13t53 27 51 37q95 68 278 192 32 22 56 49z m0 164q0-44-27-84t-68-69q-210-146-262-181-5-4-23-17t-30-22-29-18-33-15-27-5h-2q-12 0-27 5t-33 15-29 18-30 22-23 17q-51 35-147 101t-114 80q-35 23-65 64t-31 77q0 43 23 72t66 29h822q36 0 62-26t27-63z" horiz-adv-x="1000" />

<glyph glyph-name="right-open" unicode="&#xe802;" d="M618 361l-414-415q-11-10-25-10t-26 10l-92 93q-11 11-11 25t11 25l296 297-296 296q-11 11-11 25t11 25l92 93q11 10 26 10t25-10l414-414q10-11 10-25t-10-25z" horiz-adv-x="714.3" />

<glyph glyph-name="left-open" unicode="&#xe803;" d="M653 682l-296-296 296-297q11-10 11-25t-11-25l-92-93q-11-10-25-10t-25 10l-414 415q-11 10-11 25t11 25l414 414q10 10 25 10t25-10l92-93q11-10 11-25t-11-25z" horiz-adv-x="714.3" />

<glyph glyph-name="angle-right" unicode="&#xe804;" d="M332 314q0-7-6-13l-260-260q-5-5-12-5t-13 5l-28 28q-6 6-6 13t6 13l219 219-219 220q-6 5-6 12t6 13l28 28q5 6 13 6t12-6l260-260q6-5 6-13z" horiz-adv-x="357.1" />

<glyph glyph-name="angle-left" unicode="&#xe805;" d="M350 546q0-7-6-12l-219-220 219-219q6-6 6-13t-6-13l-28-28q-5-5-12-5t-13 5l-260 260q-6 6-6 13t6 13l260 260q5 6 13 6t12-6l28-28q6-5 6-13z" horiz-adv-x="357.1" />

<glyph glyph-name="angle-double-right" unicode="&#xe806;" d="M332 314q0-7-6-13l-260-260q-5-5-12-5t-13 5l-28 28q-6 6-6 13t6 13l219 219-219 220q-6 5-6 12t6 13l28 28q5 6 13 6t12-6l260-260q6-5 6-13z m214 0q0-7-5-13l-260-260q-6-5-13-5t-13 5l-28 28q-5 6-5 13t5 13l219 219-219 220q-5 5-5 12t5 13l28 28q6 6 13 6t13-6l260-260q5-5 5-13z" horiz-adv-x="571.4" />

<glyph glyph-name="angle-double-left" unicode="&#xe807;" d="M350 82q0-7-6-13l-28-28q-5-5-12-5t-13 5l-260 260q-6 6-6 13t6 13l260 260q5 6 13 6t12-6l28-28q6-5 6-13t-6-12l-219-220 219-219q6-6 6-13z m214 0q0-7-5-13l-28-28q-6-5-13-5t-13 5l-260 260q-6 6-6 13t6 13l260 260q6 6 13 6t13-6l28-28q5-5 5-13t-5-12l-220-220 220-219q5-6 5-13z" horiz-adv-x="571.4" />

<glyph glyph-name="star-empty" unicode="&#xe808;" d="M634 290l171 165-235 35-106 213-105-213-236-35 171-165-41-235 211 111 211-111z m295 199q0-12-15-27l-203-197 48-279q1-4 1-12 0-28-23-28-10 0-22 7l-251 132-250-132q-13-7-23-7-11 0-17 9t-6 19q0 4 1 12l48 279-203 197q-14 15-14 27 0 21 31 26l280 40 126 254q11 23 27 23t28-23l125-254 280-40q32-5 32-26z" horiz-adv-x="928.6" />

<glyph glyph-name="star" unicode="&#xe809;" d="M929 489q0-12-15-27l-203-197 48-279q1-4 1-12 0-11-6-19t-17-9q-10 0-22 7l-251 132-250-132q-13-7-23-7-11 0-17 9t-6 19q0 4 1 12l48 279-203 197q-14 15-14 27 0 21 31 26l280 40 126 254q11 23 27 23t28-23l125-254 280-40q32-5 32-26z" horiz-adv-x="928.6" />

<glyph glyph-name="heart-empty" unicode="&#xe80a;" d="M929 517q0 46-12 80t-31 55-46 33-52 18-55 4-62-14-62-36-48-40-34-34q-10-13-27-13t-27 13q-14 15-34 34t-48 40-62 36-62 14-55-4-52-18-46-33-31-55-12-80q0-93 105-198l324-312 324 312q105 105 105 198z m71 0q0-123-128-251l-347-335q-10-10-25-10t-25 10l-348 336q-5 5-15 15t-31 36-38 55-30 67-13 77q0 123 71 192t196 70q34 0 70-12t67-33 54-38 42-38q20 20 42 38t54 38 67 33 70 12q125 0 196-70t71-192z" horiz-adv-x="1000" />

<glyph glyph-name="heart" unicode="&#xe80b;" d="M500-79q-14 0-25 10l-348 336q-5 5-15 15t-31 36-38 55-30 67-13 77q0 123 71 192t196 70q34 0 70-12t67-33 54-38 42-38q20 20 42 38t54 38 67 33 70 12q125 0 196-70t71-192q0-123-128-251l-347-335q-10-10-25-10z" horiz-adv-x="1000" />

<glyph glyph-name="videogaleri" unicode="&#xe80c;" d="M452 848c-114-11-223-62-304-144-143-141-186-351-112-539 47-122 151-228 272-277 66-27 119-37 192-37 26 0 52 1 63 3 113 15 212 64 291 142 44 45 83 102 106 157 18 43 30 88 36 135 4 24 4 100 0 125-15 113-64 212-142 291-106 105-254 158-402 144z m102-58c52-6 95-19 140-42 154-75 249-228 249-398 0-69-14-133-45-194-74-153-228-249-396-249-16 0-38 1-48 2-153 16-286 110-353 247-60 123-60 266 1 388 66 135 192 226 341 246 29 4 83 4 111 0z m-168-210c-4 0-8-3-11-6-10-9-10-1-10-224 0-232-1-216 14-226 5-4 9-5 17-4 9 1 22 9 172 106 118 75 164 106 167 110 4 8 4 21 0 29-3 4-51 36-166 109-89 57-164 105-167 106-6 3-8 3-16 0z m272-230c0-1-53-35-118-77l-118-75 0 152 0 152 118-75c65-42 118-76 118-77z" horiz-adv-x="1000" />

<glyph glyph-name="onlineegitim" unicode="&#xe80d;" d="M479 847c-31-8-57-32-67-63-2-6-4-21-5-35-4-75-26-131-66-174-18-20-39-35-67-49l-24-12-10 7c-23 15-25 15-92 16-40 1-64 0-71-1-34-8-63-35-72-70-5-17-5-528 0-544 9-34 35-60 68-69 9-2 24-3 70-3 61 0 68 1 87 10 11 5 31 23 37 34 6 11-3 12 79-8 70-16 92-21 128-26 56-8 68-9 196-9l124 0 15 4c40 13 63 37 80 82 4 10 4 16 5 37l0 25 9 9c19 18 31 41 42 78 6 23 7 50 2 67l-4 12 9 10c17 19 31 55 34 86 1 17-2 37-8 53l-5 11 8 11c11 18 17 37 18 64 1 18 1 27-2 37-7 31-30 60-59 75-32 16-51 19-204 22-58 2-86 3-86 5 6 34 8 119 3 144-18 89-84 164-146 166-9 1-20 0-26-2z m40-66c14-6 35-27 45-45 11-18 20-41 24-61 4-17 4-24 3-62-1-49-3-60-18-107-4-16-8-29-8-30 0 0 58-1 129-2 71 0 141-2 155-3 49-4 70-11 82-30 5-9 6-10 6-33 0-19-1-25-4-31-12-22-27-27-84-27-42 0-46-1-50-10-3-7 0-16 6-19 3-1 20-2 45-3 37 0 40 0 49-5 19-9 28-30 23-55-5-29-18-50-38-59-9-4-13-4-59-5-27-1-50-2-52-3-4-2-8-12-6-17 0-2 3-6 5-8 4-3 7-3 43-3 43 0 54-2 64-12 7-8 11-22 9-34-3-16-14-47-20-55-14-19-27-23-80-24-24 0-43-1-45-3-7-3-10-12-7-19 2-3 4-7 6-8 2-1 18-2 35-2 36 0 43-2 51-16 12-22-6-64-32-74-6-2-29-3-113-3-160-1-183 1-327 35-91 21-93 22-100 33-4 6-4 12-4 230 0 203 0 224 3 230 4 7 13 15 20 17 3 1 14 6 24 10 54 26 104 73 131 124 23 45 39 104 39 146 0 16 3 31 7 37 5 6 17 13 25 13 4 0 12-3 18-7z m-312-312c3-2 8-8 10-12 4-8 4-19 4-263 0-245 0-256-4-263-2-5-7-10-10-13l-7-5-58 0c-55 0-58 1-63 5-3 2-7 6-9 9-5 5-5 6-5 262 0 141 0 259 0 262 2 8 10 18 18 21 5 2 18 3 62 2 55 0 55 0 62-5z m-82-435c-9-4-20-14-25-23-4-8-4-33 0-41 15-27 49-34 72-15 12 10 16 20 16 36 0 33-32 55-63 43z m26-30c8-7 9-18 1-25-9-9-25-1-25 12 0 11 15 20 24 13z" horiz-adv-x="1000" />

<glyph glyph-name="ogrenciyorumlari" unicode="&#xe80e;" d="M121 790c-45-8-87-40-106-82-15-30-14-11-14-280 0-225 0-242 4-254 11-41 39-75 76-94 26-12 34-14 84-15l44 0 0-69c0-65 0-69 4-75 7-12 23-18 35-12 3 2 52 37 109 79l103 76 210 1c235 1 218 0 249 15 37 19 65 53 77 94 3 12 3 29 3 254 0 225 0 242-3 254-14 50-50 87-100 104l-14 4-376 1c-207 0-380-1-385-1z m760-59c28-9 51-32 59-60 3-10 3-37 3-243 0-222 0-232-3-244-9-29-33-52-64-60-8-2-46-2-218-2-172 0-210-1-215-3-4-2-45-31-92-66l-86-63-1 58-1 58-5 5c-10 10-13 11-71 11-39 0-56 0-63 2-31 8-54 31-64 60-3 12-3 22-3 244 0 207 0 233 3 243 4 14 9 23 19 34 11 13 22 20 38 25l13 5 369 0c357 0 370 0 382-4z m-641-133c-20-11-20-39 0-49 7-3 23-4 260-4 237 0 253 1 260 4 9 4 14 12 15 22 1 12-4 21-15 27l-9 4-251 0-251 0-9-4z m0-136c-9-5-14-12-15-22-1-12 4-21 15-27l9-4 251 0 251 0 9 4c20 11 20 38 0 49-7 3-23 3-260 3-237 0-253 0-260-3z m1-135c-9-4-16-17-16-27 0-7 7-19 13-23 5-3 27-3 262-3 286 0 263-1 271 14 7 12 5 25-6 35l-6 5-257 0c-141 0-259 0-261-1z" horiz-adv-x="1000" />

<glyph glyph-name="ogrencilerimiz" unicode="&#xe80f;" d="M483 794c-2-1-97-23-211-50-137-32-212-50-219-54-5-2-16-10-23-16-39-37-40-100-1-137 18-18 27-22 117-42l10-3 1-145 0-146 5-13c32-80 149-123 338-123 189 0 306 43 338 123l5 13 0 146 1 145 10 3c90 20 99 24 117 41 39 38 38 101-1 138-7 6-17 14-23 16-7 4-83 23-220 55-208 49-229 53-244 49z m229-111c136-32 207-50 212-52 7-5 14-17 14-27 0-9-8-21-15-26-8-5-411-99-423-99-12 0-415 94-422 99-8 5-15 17-15 26 0 10 7 23 15 28 9 5 408 99 420 99 6 0 87-18 214-48z m-358-237c99-23 137-31 146-31 9 0 47 8 146 31 73 17 134 31 134 31 1 0 1-59 1-131l-1-132-6-8c-48-67-254-98-418-64-60 13-114 39-131 64l-5 8-1 132c0 72 0 131 1 131 1 0 61-14 134-31z m568 27c-4-3-8-7-11-10-4-6-4-7-4-157-1-150-1-152 3-160 12-23 44-23 55 0 4 8 4 10 3 160 0 150 0 151-4 157-7 9-16 14-26 14-7 0-12-1-16-4z m4-380c-18-9-40-55-48-100-8-39 3-66 33-81 10-5 14-5 27-5 12 0 16 0 27 5 29 15 40 42 32 81-8 46-31 91-48 100-9 4-15 4-23 0z" horiz-adv-x="1000" />

<glyph glyph-name="fotogaleri" unicode="&#xe810;" d="M347 771c-6-3-18-19-62-81l-53-76-47 0c-71 0-91-4-119-20-27-16-48-41-59-72l-6-17 0-237 0-237 6-17c15-42 49-74 92-87 11-4 28-4 401-4 373 0 390 0 401 4 43 13 77 45 92 87l6 17 0 237 0 237-6 17c-11 31-31 56-59 72-28 17-48 20-122 20l-51 0-49 71c-27 40-51 75-55 79-10 12-4 12-160 12l-142 0-8-5z m319-135c32-46 54-77 58-80l7-6 74-1c68-1 75-2 85-6 14-5 30-20 37-34l6-11 0-231 0-230-7-13c-8-14-18-24-33-31l-11-5-382 0-382 0-11 5c-15 7-25 17-33 31l-7 13 0 231 0 231 7 13c7 13 17 22 32 30 8 4 9 4 80 5 77 1 77 1 87 12 2 3 24 33 48 68 25 35 48 69 52 74l8 10 117 0 117 0 51-75z m-191-103c-95-11-175-80-199-173-7-26-8-62-4-90 26-156 199-241 341-166 85 45 134 138 121 232-17 123-133 212-259 197z m68-68c30-7 59-23 81-47 86-89 46-235-75-270-91-27-187 29-209 121-6 23-5 61 2 82 27 86 112 134 201 114z m258 17c-11-4-19-10-25-20-4-8-5-12-5-22 0-22 12-38 34-43 18-5 40 4 50 21 4 7 5 12 5 22 0 11-1 14-5 23-12 17-36 26-54 19z m28-29c5-5 7-9 7-13 0-9-11-20-19-20-9 0-15 4-19 10-8 14 1 29 18 29 5 0 8-1 13-6z" horiz-adv-x="1000" />

<glyph glyph-name="location" unicode="&#xe811;" d="M429 493q0 59-42 101t-101 42-101-42-42-101 42-101 101-42 101 42 42 101z m142 0q0-61-18-100l-203-432q-9-18-27-29t-37-11-38 11-26 29l-204 432q-18 39-18 100 0 118 84 202t202 84 202-84 83-202z" horiz-adv-x="571.4" />

<glyph glyph-name="mobile" unicode="&#xe812;" d="M480 840q42 0 71-29t29-71l0-780q0-40-29-70t-71-30l-380 0q-40 0-70 30t-30 70l0 780q0 42 30 71t70 29l380 0z m-190-940q30 0 50 15t20 35q0 22-20 36t-50 14q-28 0-49-15t-21-35 21-35 49-15z m210 150l0 660-420 0 0-660 420 0z" horiz-adv-x="580" />

<glyph glyph-name="comment-empty" unicode="&#xe813;" d="M500 636q-114 0-213-39t-157-105-59-142q0-62 40-119t113-98l48-28-15-54q-13-50-39-96 85 36 154 96l24 21 31-3q39-5 73-5 114 0 213 39t157 105 59 142-59 142-157 105-213 39z m500-286q0-97-67-179t-182-130-251-48q-39 0-81 4-110-97-257-135-27-8-63-12h-3q-8 0-15 6t-9 15v1q-2 2 0 6t1 6 2 5l4 5t4 5 4 5q4 5 17 19t20 22 17 22 18 28 15 33 15 42q-88 50-138 123t-51 157q0 97 67 179t182 130 251 48 251-48 182-130 67-179z" horiz-adv-x="1000" />

<glyph glyph-name="comment" unicode="&#xe814;" d="M1000 350q0-97-67-179t-182-130-251-48q-39 0-81 4-110-97-257-135-27-8-63-12-10-1-17 5t-10 16v1q-2 2 0 6t1 6 2 5l4 5t4 5 4 5q4 5 17 19t20 22 17 22 18 28 15 33 15 42q-88 50-138 123t-51 157q0 73 40 139t106 114 160 76 194 28q136 0 251-48t182-130 67-179z" horiz-adv-x="1000" />
</font>
</defs>
</svg>
